BILL36
超凡入圣№

[2024] [日本] [动作] [WEB-1080P] 至高之牌 第二季[第06集][中文字幕].HIGH.CARD.S02.2024.1080p.KKTV.WEB-DL.x264.AAC-ZeroTV 0.53GB

-->

完整标题:至高之牌 第二季[第06集][中文字幕].HIGH.CARD.S02.2024.1080p.KKTV.WEB-DL.x264.AAC-ZeroTV 0.53GB



◎标  题 至高之牌 第二季
◎片  名 HIGH CARD Season 2
◎年  代 2024
◎产  地 日本
◎类  别 动作 / 动画 / 奇幻
◎语  言 日语
◎IMDb链接 https://www.imdb.com/title//
◎豆瓣链接 https://movie.douban.com/subject/36330031/
◎导  演 和田纯一 Junichi Wada
◎编  剧 黑柳尚己 Kuroyanagi Naoki
◎演  员 佐藤元 Gen Satou
      增田俊树 Toshiki Masuda
      堀江瞬 Horie Shun
      白石晴香 Shiraishi Haruka
      梅原裕一郎 Yuichiro Umehara
      山路和弘 Kazuhiro Yamaji
      小野大辅 Daisuke Ono
      岛崎信长 Nobunaga Shimazaki
      关智一 Tomokazu Seki
      丰永利行 Toshiyuki Toyonaga
      森川智之 Toshiyuki Morikawa
      高桥李依 Rie Takahashi
      关俊彦 Toshihiko Seki
      武内骏辅 Shunsuke Takeuchi
      园崎未惠 Mie Sonozaki
      松冈祯丞 Yoshitsugu Matsuoka
      泽城美雪 Miyuki Sawashiro
      名冢佳织 Kaori Nazuka
      小野贤章 Kensho Ono

部分资源为软字幕,移动端推荐播放器:MxPlayer,nPlayer,infuse ,其他播放器请自行尝试。

部分资源为软字幕,电脑端推荐播放器:PotPlayer,完美解码,KMPLAYER,其他播放器请自行尝试。

##### MediaInfo ######
General
Unique ID : 24662627170303324098629210188403652435 (0x128DD96650AA727C99B606535EA33753)
Complete name : HIGH.CARD.S02E06.2024.1080p.KKTV.WEB-DL.x264.AAC-ZeroTV.mkv
Duration : 23 min 40 s
Overall bit rate : 3 214 kb/s

Video
ID : 1
Format : AVC
Format/Info : Advanced Video Codec
Format profile : [email protected]
Format settings : CABAC / 5 Ref Frames
Format settings, CABAC : Yes
Format settings, Reference frames : 5 frames
Codec ID : V_MPEG4/ISO/AVC
Duration : 23 min 40 s
Bit rate : 3 000 kb/s
Width : 1 920 pixels
Height : 1 080 pixels
Display aspect ratio : 16:9
Frame rate mode : Constant
Frame rate : 23.976 (24000/1001) FPS
Color space : YUV
Chroma subsampling : 4:2:0
Bit depth : 8 bits
Scan type : Progressive
Bits/(Pixel*Frame) : 0.060
Stream size : 511 MiB (94%)
Writing library : x264 core 142
Encoding settings : cabac=1 / ref=5 / deblock=1:0:0 / analyse=0x3:0x113 / me=umh / subme=9 / psy=1 / psy_rd=1.00:0.00 / mixed_ref=1 / me_range=32 / chroma_me=1 / trellis=1 / 8x8dct=1 / cqm=0 / deadzone=21,11 / fast_pskip=1 / chroma_qp_offset=-2 / threads=12 / lookahead_threads=1 / sliced_threads=0 / nr=0 / decimate=1 / interlaced=0 / bluray_compat=0 / stitchable=1 / constrained_intra=0 / bframes=3 / b_pyramid=2 / b_adapt=1 / b_bias=0 / direct=3 / weightb=1 / open_gop=0 / weightp=2 / keyint=24 / keyint_min=2 / scenecut=0 / intra_refresh=0 / rc_lookahead=35 / rc=abr / mbtree=1 / bitrate=3000 / ratetol=1.0 / qcomp=0.60 / qpmin=0 / qpmax=69 / qpstep=4 / vbv_maxrate=4500 / vbv_bufsize=6750 / nal_hrd=none / filler=0 / ip_ratio=1.40 / aq=1:1.00
Language : English
Default : Yes
Forced : No

Audio
ID : 2
Format : AAC LC
Format/Info : Advanced Audio Codec Low Complexity
Codec ID : A_AAC-2
Duration : 23 min 40 s
Bit rate : 192 kb/s
Channel(s) : 2 channels
Channel layout : L R
Sampling rate : 44.1 kHz
Frame rate : 43.066 FPS (1024 SPF)
Compression mode : Lossy
Stream size : 32.5 MiB (6%)
Title : Japanese
Language : Japanese
Default : Yes
Forced : No

Text #1
ID : 3
Format : UTF-8
Codec ID : S_TEXT/UTF8
Codec ID/Info : UTF-8 Plain Text
Duration : 23 min 5 s
Bit rate : 44 b/s
Frame rate : 0.221 FPS
Count of elements : 306
Stream size : 7.49 KiB (0%)
Title : Chinese Simplified
Language : Chinese
Default : Yes
Forced : No

Text #2
ID : 4
Format : UTF-8
Codec ID : S_TEXT/UTF8
Codec ID/Info : UTF-8 Plain Text
Duration : 23 min 5 s
Bit rate : 44 b/s
Frame rate : 0.221 FPS
Count of elements : 306
Stream size : 7.49 KiB (0%)
Title : Chinese Traditional
Language : Chinese
Default : No
Forced : No


点击图片可查看大图

软字幕无法在截图上展现,HDR版本/杜比视界版本截图会出现颜色异常,请使用支持的设备播放!



1 个附件 售价 大小 下载 时间

HIGH.CARD.S02.2024.1080p.KKTV.WEB-DL.x264.AAC-ZeroTV[1LOU.ME].torrent 0 金币 4.05K 98 次 19天前

#1楼
发帖时间:2024-02-12 21:27:01   |   回复数:0
游客组