BILL36
超凡入圣№

[2024] [美国] [剧情] [WEB-4K] 天才 第四季[第03-04集][无字片源].Genius.S04.2160p.DSNP.WEB-DL.DDP.5.1.Atmos.HDR10.H.265-Bla

-->

完整标题:天才 第四季[第03-04集][无字片源].Genius.S04.2160p.DSNP.WEB-DL.DDP.5.1.Atmos.HDR10.H.265-BlackTV 10.54GB



◎标  题 天才 第四季
◎译  名 天才:马丁·路德·金与马尔科姆·X / Genius: MLK / X / Genius: Martin Luther King Jr.
◎片  名 Genius Season 4
◎年  代 2024
◎产  地 美国
◎类  别 剧情 / 传记 / 历史
◎语  言 英语
◎IMDb链接 https://www.imdb.com/title/tt13623152/
◎豆瓣链接 https://movie.douban.com/subject/35284475/

◎简  介
    马丁·路德·金和马尔科姆·X唯一一次会面是1964年3月26日在美国国会大厦,两人参与了参议院关于1964年民权法案的辩论。   本剧故事将探索两人的成长岁月、开创性成就、竞争哲学和关键人际关系。当金通过非暴力抗议推进种族平等时,马尔科姆·X为黑人赋权、身份认同和自决权大声疾呼。分别有着令人敬畏的妻子科丽塔·斯科特·金、贝蒂·夏巴兹在身边,金和X成为了民权时代和争取种族、经济正义的代名词。虽然他们只见过一次面,并且经常挑战对方的观点,但如果没有对方,两人都不会那么成功。

部分资源为软字幕,移动端推荐播放器:MxPlayer,nPlayer,infuse ,其他播放器请自行尝试。

部分资源为软字幕,电脑端推荐播放器:PotPlayer,完美解码,KMPLAYER,其他播放器请自行尝试。

##### MediaInfo ######
General
Unique ID : 112224207838636799852455469749499498391 (0x546D98A2EEC9E0C963C217B30B0A8F97)
Complete name : Genius.S04E03.MLK.&.X.Protect.Us.2160p.DSNP.WEB-DL.DDP.5.1.Atmos.HDR10.H.265-BlackTV.mkv
Duration : 50 min 57 s
Overall bit rate : 14.3 Mb/s

Video
ID : 1
Format : HEVC
Format/Info : High Efficiency Video Coding
Format profile : Main 10@L5@High
HDR format : SMPTE ST 2086, HDR10 compatible
Codec ID : V_MPEGH/ISO/HEVC
Duration : 50 min 57 s
Bit rate : 13.6 Mb/s
Width : 3 840 pixels
Height : 2 160 pixels
Display aspect ratio : 16:9
Frame rate mode : Constant
Frame rate : 23.976 (24000/1001) FPS
Color space : YUV
Chroma subsampling : 4:2:0
Bit depth : 10 bits
Bits/(Pixel*Frame) : 0.068
Stream size : 4.83 GiB (95%)
Language : English
Default : Yes
Forced : No
Color range : Limited
Color primaries : BT.2020
Transfer characteristics : PQ
Matrix coefficients : BT.2020 non-constant
Mastering display color primaries : Display P3
Mastering display luminance : min: 0.0050 cd/m2, max: 1000 cd/m2

Audio
ID : 2
Format : E-AC-3 JOC
Format/Info : Enhanced AC-3 with Joint Object Coding
Commercial name : Dolby Digital Plus with Dolby Atmos
Codec ID : A_EAC3
Duration : 50 min 57 s
Bit rate mode : Constant
Bit rate : 768 kb/s
Channel(s) : 6 channels
Channel layout : L R C LFE Ls Rs
Sampling rate : 48.0 kHz
Frame rate : 31.250 FPS (1536 SPF)
Compression mode : Lossy
Stream size : 280 MiB (5%)
Language : English
Service kind : Complete Main
Default : Yes
Forced : No
Complexity index : 16
Number of dynamic objects : 15
Bed channel count : 1 channel
Bed channel configuration : LFE

Text #1
ID : 3
Format : UTF-8
Codec ID : S_TEXT/UTF8
Codec ID/Info : UTF-8 Plain Text
Duration : 50 min 41 s
Bit rate : 83 b/s
Frame rate : 0.292 FPS
Count of elements : 888
Stream size : 30.9 KiB (0%)
Title : SDH
Language : English
Default : No
Forced : No

Text #2
ID : 4
Format : UTF-8
Codec ID : S_TEXT/UTF8
Codec ID/Info : UTF-8 Plain Text
Duration : 49 min 8 s
Bit rate : 66 b/s
Frame rate : 0.246 FPS
Count of elements : 726
Stream size : 24.0 KiB (0%)
Title : Latin America
Language : Spanish
Default : No
Forced : No

Text #3
ID : 5
Format : UTF-8
Codec ID : S_TEXT/UTF8
Codec ID/Info : UTF-8 Plain Text
Duration : 50 min 40 s
Bit rate : 69 b/s
Frame rate : 0.220 FPS
Count of elements : 669
Stream size : 25.8 KiB (0%)
Language : Italian
Default : No
Forced : No

Text #4
ID : 6
Format : UTF-8
Codec ID : S_TEXT/UTF8
Codec ID/Info : UTF-8 Plain Text
Duration : 49 min 8 s
Bit rate : 59 b/s
Frame rate : 0.208 FPS
Count of elements : 613
Stream size : 21.6 KiB (0%)
Language : Japanese
Default : No
Forced : No

Text #5
ID : 7
Format : UTF-8
Codec ID : S_TEXT/UTF8
Codec ID/Info : UTF-8 Plain Text
Duration : 50 min 1 s
Bit rate : 68 b/s
Frame rate : 0.228 FPS
Count of elements : 683
Stream size : 25.0 KiB (0%)
Title : Brazil
Language : Portuguese
Default : No
Forced : No

Menu
00:00:04.254 : en:Recap
00:00:36.036 : en:Scene 1
00:50:06.131 : en:Credits


点击图片可查看大图

软字幕无法在截图上展现,HDR版本/杜比视界版本截图会出现颜色异常,请使用支持的设备播放!



1 个附件 售价 大小 下载 时间

Genius.S04.2160p.DSNP.WEB-DL.DDP.5.1.Atmos.HDR10.H.265-BlackTV[1LOU.ME].torrent 0 金币 29.21K 91 次 19天前

#1楼
发帖时间:2024-02-13 10:01:48   |   回复数:0
游客组