BILL36
超凡入圣№

[2023] [英国] [惊悚] [WEB-4K] 墙里的女人[第04集][无字片源].The.Woman.in.the.Wall.S01.2160p.SHO.WEB-DL.DD.5.1.H.265-BlackT

-->

完整标题:墙里的女人[第04集][无字片源].The.Woman.in.the.Wall.S01.2160p.SHO.WEB-DL.DD.5.1.H.265-BlackTV 6.21GB



◎标  题 墙里的女人
◎片  名 The Woman in the Wall
◎年  代 2023
◎产  地 英国
◎类  别 惊悚
◎语  言 英语
◎IMDb评分 7.2/10 (3011人评价)
◎IMDb链接 https://www.imdb.com/title/tt21822590/
◎豆瓣评分 7.2/10 (238人评价)
◎豆瓣链接 https://movie.douban.com/subject/36217088/
◎导  演 哈莉·伍特里夫 Harry Wootliff
      拉彻娜·萨里 Rachna Suri
◎编  剧 乔·墨塔 Joe Murtagh
◎演  员 露丝·威尔森 Ruth Wilson
      达利尔·麦克科马克 Daryl McCormack
      艾比·菲茨 Abby Fitz
      西蒙·德兰尼 Simon Delaney
      齐季·阿库多卢 Chizzy Akudolu
      Lynn Rafferty

◎简  介
    Lorna Brady is a woman from the small, fictional Irish town of Kilkinure who wakes one morning to find a corpse in her house. Chillingly, Lorna has no idea who the dead woman is, or if she herself might be responsible for the apparent murder. That’s because Lorna has long suffered from extreme bouts of sleepwalking ever since she was ripped from her life at the age of 15 and incarcerated in a convent. There, Lorna gave birth to her daughter Agnes, who was cruelly taken from her and whose fate Lorna has never known.   Unluckily for Lorna, Detective Colman Akande is now also on her tail, for a crime seemingly unrelated to the body she has discovered in her house. The ambitious Colman quickly rose through the ranks of the Garda Síochána thanks to his natural aptitude. His scathing wit hides a quiet sadness, and when he meets Lorna, he finds himself forced to confront his own haunting secrets.      As Colman searches for a murderer and Lorna searches for her daughter, their paths collide in ways they could never have anticipated. Lorna’s search for Agnes will take her deep into her own past and to the heart of Kilkinure’s darkest secrets, as she and Colman seek the answers they each so desperately need.

部分资源为软字幕,移动端推荐播放器:MxPlayer,nPlayer,infuse ,其他播放器请自行尝试。

部分资源为软字幕,电脑端推荐播放器:PotPlayer,完美解码,KMPLAYER,其他播放器请自行尝试。

##### MediaInfo ######
General
Unique ID : 200211282499638718899011687313356748712 (0x969F4A58C51E6CE1DFFD901FDFEDF7A8)
Complete name : The.Woman.in.the.Wall.S01E04.The.Cruelty.Man.2160p.SHO.WEB-DL.DD.5.1.H.265-BlackTV.mkv
Duration : 59 min 18 s
Overall bit rate : 15.0 Mb/s

Video
ID : 1
Format : HEVC
Format/Info : High Efficiency Video Coding
Format profile : Main@L5@Main
Codec ID : V_MPEGH/ISO/HEVC
Duration : 59 min 18 s
Bit rate : 14.6 Mb/s
Width : 3 840 pixels
Height : 2 160 pixels
Display aspect ratio : 16:9
Frame rate mode : Constant
Frame rate : 25.000 FPS
Color space : YUV
Chroma subsampling : 4:2:0
Bit depth : 8 bits
Bits/(Pixel*Frame) : 0.070
Stream size : 6.05 GiB (97%)
Writing library : x265 3.4hy:[Linux][GCC 7.5.0][64 bit] 8bit
Encoding settings : cpuid=1111039 / frame-threads=6 / no-wpp / no-pmode / no-pme / no-psnr / no-ssim / log-level=2 / input-csp=1 / input-res=3840x2160 / interlace=0 / total-frames=0 / level-idc=0 / high-tier=1 / uhd-bd=0 / ref=4 / no-allow-non-conformance / repeat-headers / annexb / aud / hrd / info / hash=0 / no-temporal-layers / no-open-gop / min-keyint=48 / keyint=48 / gop-lookahead=0 / bframes=4 / b-adapt=2 / b-pyramid / bframe-bias=0 / rc-lookahead=48 / lookahead-slices=4 / scenecut=0 / hist-scenecut=0 / radl=0 / no-splice / no-intra-refresh / ctu=64 / min-cu-size=8 / rect / no-amp / max-tu-size=32 / tu-inter-depth=1 / tu-intra-depth=1 / limit-tu=0 / rdoq-level=2 / dynamic-rd=0.00 / no-ssim-rd / signhide / no-tskip / nr-intra=100 / nr-inter=400 / no-constrained-intra / strong-intra-smoothing / max-merge=3 / limit-refs=3 / limit-modes / me=3 / subme=3 / merange=57 / temporal-mvp / no-frame-dup / no-hme / weightp / no-weightb / no-analyze-src-pics / deblock=0:0 / sao / no-sao-non-deblock / rd=4 / selective-sao=4 / no-early-skip / rskip / no-fast-intra / no-tskip-fast / no-cu-lossless / no-b-intra / no-splitrd-skip / rdpenalty=0 / psy-rd=0.00 / psy-rdoq=1.00 / no-rd-refine / no-lossless / cbqpoffs=0 / crqpoffs=0 / rc=abr / bitrate=15000 / qcomp=0.60 / qpstep=4 / stats-write=0 / stats-read=2 / cplxblur=20.0 / qblur=0.5 / vbv-maxrate=18000 / vbv-bufsize=12000 / vbv-init=0.6 / vbv-end=0.6 / vbv-end-fr-adj=0.0 / ipratio=1.40 / pbratio=1.30 / aq-mode=2 / aq-strength=1.00 / cutree / zone-count=0 / no-strict-cbr / qg-size=32 / no-rc-grain / qpmax=69 / qpmin=0 / no-const-vbv / sar=1 / overscan=0 / videoformat=5 / range=0 / colorprim=1 / transfer=1 / colormatrix=1 / chromaloc=0 / display-window=0 / cll=0,0 / min-luma=0 / max-luma=255 / log2-max-poc-lsb=8 / vui-timing-info / vui-hrd-info / no-concatenation / slices=1 / no-opt-qp-pps / no-opt-ref-list-length-pps / no-multi-pass-opt-rps / scenecut-bias=0.05 / hist-threshold=0.01 / no-opt-cu-delta-qp / no-aq-motion / no-hdr10 / no-hdr10-opt / no-dhdr10-opt / no-idr-recovery-sei / analysis-reuse-level=0 / analysis-save-reuse-level=0 / analysis-load-reuse-level=0 / scale-factor=0 / refine-intra=0 / refine-inter=0 / refine-mv=1 / refine-ctu-distortion=0 / no-limit-sao / ctu-info=0 / no-lowpass-dct / refine-analysis-type=0 / copy-pic=1 / max-ausize-factor=1.0 / no-dynamic-refine / no-single-sei / no-hevc-aq / no-svt / no-field / qp-adaptation-range=1.00 / no-scenecut-aware-qpconformance-window-offsets / right=0 / bottom=0 / decoder-max-rate=0
Language : English
Default : Yes
Forced : No
Color range : Limited
Color primaries : BT.709
Transfer characteristics : BT.709
Matrix coefficients : BT.709

Audio
ID : 2
Format : AC-3
Format/Info : Audio Coding 3
Commercial name : Dolby Digital
Codec ID : A_AC3
Duration : 59 min 18 s
Bit rate mode : Constant
Bit rate : 384 kb/s
Channel(s) : 6 channels
Channel layout : L R C LFE Ls Rs
Sampling rate : 48.0 kHz
Frame rate : 31.250 FPS (1536 SPF)
Compression mode : Lossy
Stream size : 163 MiB (3%)
Language : English
Service kind : Complete Main
Default : Yes
Forced : No

Text
ID : 3
Format : UTF-8
Codec ID : S_TEXT/UTF8
Codec ID/Info : UTF-8 Plain Text
Duration : 58 min 56 s
Bit rate : 50 b/s
Frame rate : 0.207 FPS
Count of elements : 733
Stream size : 21.7 KiB (0%)
Language : English
Default : No
Forced : No


点击图片可查看大图

软字幕无法在截图上展现,HDR版本/杜比视界版本截图会出现颜色异常,请使用支持的设备播放!



1 个附件 售价 大小 下载 时间

The.Woman.in.the.Wall.S01.2160p.SHO.WEB-DL.DD.5.1.H.265-BlackTV[1LOU.ME].torrent 0 金币 18.25K 77 次 19天前

#1楼
发帖时间:2024-02-13 10:20:32   |   回复数:0
游客组