BILL36
超凡入圣№

[2024] [日本] [爱情] [WEB-1080P] 回转未来[第04集][无字片源].Time.Travelers.Disease.S01.1080p.HuluJP.WEB-DL.AAC.2.0.H.264-Bl

-->

完整标题:回转未来[第04集][无字片源].Time.Travelers.Disease.S01.1080p.HuluJP.WEB-DL.AAC.2.0.H.264-BlackTV 1.76GB



◎标  题 回转未来
◎片  名 めぐる未来
◎年  代 2024
◎产  地 日本
◎类  别 爱情 / 科幻
◎语  言 日语
◎IMDb链接 https://www.imdb.com/title//
◎豆瓣链接 https://movie.douban.com/subject/36660794/
◎导  演 久万真路 Shinji Kuma
      塩崎遵 Jun Shiozaki
◎演  员 萩原利久 Riku Hagiwara
      早见明里 Akari Hayami
      大西礼芳 Ayaka Onishi
      时任勇气 Yuki Tokito
      中井友望 Tomo Nakai
      香音 Kanon
      藤原光博 Mitsuhiro Fujiwara
      田中伟登 Taketo Tanaka
      佐伯日菜子 Hinako Saeki
      胜村政信 Masanobu Katsumura

◎简  介
    本剧改编自同名漫画。讲述设计师兼插画家的襷未来有着对最爱的妻子·回也无法言说的秘密——他患有一种如果感情起伏剧烈就会回到过去的疾病。而有一天,他突然被告知妻子从公司的紧急楼梯坠落而亡。开朗天真的妻子为何身亡,是自杀,还是事故。在重返过去的过程中看到的是妻子不为人知一面和人际关系,未来能否通过无法以个人意志控制的穿越来拯救回?

部分资源为软字幕,移动端推荐播放器:MxPlayer,nPlayer,infuse ,其他播放器请自行尝试。

部分资源为软字幕,电脑端推荐播放器:PotPlayer,完美解码,KMPLAYER,其他播放器请自行尝试。

##### MediaInfo ######
General
Unique ID : 262280866995441068545026309842231392187 (0xC551752290141F50CE6337808FB077BB)
Complete name : Time.Travelers.Disease.S01E04.1080p.HuluJP.WEB-DL.AAC.2.0.H.264-BlackTV.mkv
Duration : 42 min 2 s
Overall bit rate : 5 983 kb/s

Video
ID : 1
Format : AVC
Format/Info : Advanced Video Codec
Format profile : High@L4
Format settings : CABAC / 4 Ref Frames
Format settings, CABAC : Yes
Format settings, Reference frames : 4 frames
Codec ID : V_MPEG4/ISO/AVC
Duration : 42 min 2 s
Bit rate : 5 727 kb/s
Width : 1 920 pixels
Height : 1 080 pixels
Display aspect ratio : 16:9
Frame rate mode : Constant
Frame rate : 29.970 (30000/1001) FPS
Color space : YUV
Chroma subsampling : 4:2:0
Bit depth : 8 bits
Scan type : Progressive
Bits/(Pixel*Frame) : 0.092
Stream size : 1.68 GiB (96%)
Language : Japanese
Default : Yes
Forced : No
Color range : Limited
Color primaries : BT.709
Transfer characteristics : BT.709
Matrix coefficients : BT.709

Audio
ID : 2
Format : AAC LC
Format/Info : Advanced Audio Codec Low Complexity
Codec ID : A_AAC-2
Duration : 42 min 2 s
Bit rate : 253 kb/s
Channel(s) : 2 channels
Channel layout : L R
Sampling rate : 48.0 kHz
Frame rate : 46.875 FPS (1024 SPF)
Compression mode : Lossy
Stream size : 76.2 MiB (4%)
Language : Japanese
Default : Yes
Forced : No


点击图片可查看大图

软字幕无法在截图上展现,HDR版本/杜比视界版本截图会出现颜色异常,请使用支持的设备播放!



1 个附件 售价 大小 下载 时间

Time.Travelers.Disease.S01.1080p.HuluJP.WEB-DL.AAC.2.0.H.264-BlackTV[1LOU.ME].torrent 0 金币 7.12K 77 次 19天前

#1楼
发帖时间:2024-02-13 10:21:47   |   回复数:0
游客组