BILL36
隐世仙人♂

[2024] [大陆] [真人秀] [WEB-1080P] 魔方新世界[第01-02集][国语配音/中文字幕].Mo.Fang.Xin.Shi.Jie.S01.2024.1080p.WEB-DL.H264.AAC-Lel

-->

完整标题:魔方新世界[第01-02集][国语配音/中文字幕].Mo.Fang.Xin.Shi.Jie.S01.2024.1080p.WEB-DL.H264.AAC-LelveTV 2.77GB



◎标  题 魔方新世界
◎年  代 2024
◎产  地 中国大陆
◎类  别 真人秀
◎语  言 汉语普通话
◎IMDb链接 https://www.imdb.com/title//
◎豆瓣链接 https://movie.douban.com/subject/36645988/
◎导  演 晏吉 Ji Yan
◎编  剧 刘翼豪 Yihao Liu
◎演  员 何炅 Jiong He
      魏大勋 Daxun Wei
      刘昊然 Haoran Liu
      吴昕 Xin Wu
      蔡文静 Wenjing Cai
      陈哲远 Zheyuan Chen
      周笔畅 BiBi Chou
      蒲熠星 Eazin Poe
      郭文韬 Wentao Guo
      齐思钧 Sijun Qi
      何运晨 Yunchen He
      石凯 Kai Shi
      火树 Shu Huo
      王栎鑫 Yuexin Wang
      王勉 Mian Wang
      沈羽洁 Yujie Shen
      奥利 Ollie
      白举纲 Jugang Bai

◎简  介
    18名「精智」 玩家集结于“魔方大楼”,他们将在魔方世界的6大奇妙实景游戏空间,展开12场“沉浸式”激烈脑力对决,全方位展示推理、沟通、观察、 信息甄别、制定战略等综合能力。历经层层甄选,突破极致考验,玩家们将逐步揭开隐藏于每个游戏背后的“寓言”真谛,输送历久弥新的哲理与智慧。

部分资源为软字幕,移动端推荐播放器:MxPlayer,nPlayer,infuse ,其他播放器请自行尝试。

部分资源为软字幕,电脑端推荐播放器:PotPlayer,完美解码,KMPLAYER,其他播放器请自行尝试。

下载端推荐纯BT下载软件:qBittorrent,Bitcomet,uTorrent ,其他下载软件请自行尝试。不支持吸血迅雷。

##### MediaInfo ######
General
Complete name : Mo.Fang.Xin.Shi.Jie.S01E01.2024.1080p.WEB-DL.H264.AAC-LelveTV.mp4
Duration : 1 h 30 min
Overall bit rate mode : Variable
Overall bit rate : 2 401 kb/s

Video
ID : 1
Format : AVC
Format/Info : Advanced Video Codec
Format profile : High@L4
Format settings : CABAC / 4 Ref Frames
Format settings, CABAC : Yes
Format settings, Reference frames : 4 frames
Codec ID : avc1
Codec ID/Info : Advanced Video Coding
Duration : 1 h 30 min
Bit rate : 2 204 kb/s
Width : 1 920 pixels
Height : 1 080 pixels
Display aspect ratio : 16:9
Frame rate mode : Constant
Frame rate : 25.000 FPS
Color space : YUV
Chroma subsampling : 4:2:0
Bit depth : 8 bits
Scan type : Progressive
Bits/(Pixel*Frame) : 0.043
Stream size : 1.39 GiB (92%)
Writing library : 211111.mgtv.com
Color range : Limited
Color primaries : BT.709
Transfer characteristics : BT.709
Matrix coefficients : BT.709
Codec configuration box : avcC

Audio
ID : 2
Format : AAC LC
Format/Info : Advanced Audio Codec Low Complexity
Codec ID : mp4a-40-2
Duration : 1 h 30 min
Bit rate mode : Variable
Bit rate : 192 kb/s
Channel(s) : 2 channels
Channel layout : L R
Sampling rate : 44.1 kHz
Frame rate : 43.066 FPS (1024 SPF)
Compression mode : Lossy
Stream size : 123 MiB (8%)
Default : Yes
Alternate group : 1




1 个附件 售价 大小 下载 时间

Mo.Fang.Xin.Shi.Jie.S01.2024.1080p.WEB-DL.H264.AAC-LelveTV[1LOU.ME].torrent 0 金币 9.54K 189 次 4天前

#1楼
发帖时间:2024-05-16 01:04:31   |   回复数:0
游客组