BILL36
隐世仙人♂

[2024] [大陆] [剧情] [WEB-1080P] 少年巴比伦[第25-26集][国语音轨/简繁英字幕].Young.Babylon.S01.2024.1080p.WeTV.WEB-DL.H264.AAC-Bla

-->

完整标题:少年巴比伦[第25-26集][国语音轨/简繁英字幕].Young.Babylon.S01.2024.1080p.WeTV.WEB-DL.H264.AAC-BlackTV 1.00GB



◎标  题 少年巴比伦
◎译  名 少年巴比伦剧版 / Young Babylon
◎年  代 2024
◎产  地 中国大陆
◎类  别 剧情 / 爱情
◎语  言 汉语普通话
◎IMDb链接 https://www.imdb.com/title/tt26442657/
◎豆瓣链接 https://movie.douban.com/subject/35483390/
◎导  演 林育贤 Yu-Hsien Lin
◎编  剧 何亮
      朱金晨 Jinchen Zhu
      张柳 Liu Zhang
      母紫馨 Yolanda
      路内 Nei Lu
◎演  员 杨采钰 Caiyu Yang
      侯明昊 Minghao Hou
      向涵之 Hanzhi Xiang
      费启鸣 Qiming Fei
      张腾 Teng Zhang
      陈奕歌 Yige Chen
      隋媛 Yuan Sui
      张淞 Song Zhang
      王蔷 Qiang Wang
      张天舒 Tianshu Zhang

◎简  介
    上世纪90年代初,东南沿海小城——福城,一群在时代列车上追赶青春的少年,他们热烈而莽撞,肆意的野蛮生长。在寻找星辰大海中完成“平凡又不平凡”的蜕变,在青春最香甜灿烂的年代,努力迎向属于他们的光辉岁月,收获了成长与爱情。

部分资源为软字幕,移动端推荐播放器:MxPlayer,nPlayer,infuse ,其他播放器请自行尝试。

部分资源为软字幕,电脑端推荐播放器:PotPlayer,完美解码,KMPLAYER,其他播放器请自行尝试。

下载端推荐纯BT下载软件:qBittorrent,Bitcomet,uTorrent ,其他下载软件请自行尝试。不支持吸血迅雷。

##### MediaInfo ######
General
Unique ID : 20675122674277082790950019426422875893 (0xF8DE23FD06D824F3066D524EC7FE6F5)
Complete name : Young.Babylon.S01E25.2024.1080p.WeTV.WEB-DL.H264.AAC-BlackTV.mkv
Duration : 42 min 12 s
Overall bit rate : 1 400 kb/s

Video
ID : 1
Format : AVC
Format/Info : Advanced Video Codec
Format profile : High@L4
Format settings : CABAC / 4 Ref Frames
Format settings, CABAC : Yes
Format settings, Reference frames : 4 frames
Codec ID : V_MPEG4/ISO/AVC
Duration : 42 min 12 s
Bit rate : 1 304 kb/s
Width : 1 920 pixels
Height : 960 pixels
Display aspect ratio : 2.000
Frame rate mode : Constant
Frame rate : 25.000 FPS
Color space : YUV
Chroma subsampling : 4:2:0
Bit depth : 8 bits
Scan type : Progressive
Bits/(Pixel*Frame) : 0.028
Stream size : 394 MiB (93%)
Language : Chinese
Default : Yes
Forced : No
Color range : Limited
Color primaries : BT.709
Matrix coefficients : BT.709

Audio
ID : 2
Format : AAC LC
Format/Info : Advanced Audio Codec Low Complexity
Codec ID : A_AAC-2
Duration : 42 min 12 s
Bit rate : 93.4 kb/s
Channel(s) : 2 channels
Channel layout : L R
Sampling rate : 48.0 kHz
Frame rate : 46.875 FPS (1024 SPF)
Compression mode : Lossy
Delay relative to video : -42 ms
Stream size : 28.2 MiB (7%)
Title : Mandarin [AAC2.0]
Language : Chinese
Default : No
Forced : No

Text #1
ID : 3
Format : UTF-8
Codec ID : S_TEXT/UTF8
Codec ID/Info : UTF-8 Plain Text
Duration : 36 min 39 s
Bit rate : 34 b/s
Frame rate : 0.230 FPS
Count of elements : 506
Stream size : 9.21 KiB (0%)
Title : Chinese (Simplified)
Language : Chinese
Default : Yes
Forced : No

Text #2
ID : 4
Format : UTF-8
Codec ID : S_TEXT/UTF8
Codec ID/Info : UTF-8 Plain Text
Duration : 36 min 39 s
Bit rate : 34 b/s
Frame rate : 0.230 FPS
Count of elements : 506
Stream size : 9.21 KiB (0%)
Title : Chinese (Traditional)
Language : Chinese
Default : No
Forced : No

Text #3
ID : 5
Format : UTF-8
Codec ID : S_TEXT/UTF8
Codec ID/Info : UTF-8 Plain Text
Duration : 41 min 23 s
Bit rate : 49 b/s
Frame rate : 0.228 FPS
Count of elements : 565
Stream size : 15.0 KiB (0%)
Title : English
Language : English
Default : No
Forced : No


点击图片可查看大图

软字幕无法在截图上展现,HDR版本/杜比视界版本截图会出现颜色异常,请使用支持的设备播放!



1 个附件 售价 大小 下载 时间

Young.Babylon.S01.2024.1080p.WeTV.WEB-DL.H264.AAC-BlackTV[1LOU.ME].torrent 0 金币 5.11K 91 次 4天前

#1楼
发帖时间:2024-05-16 07:28:18   |   回复数:0
游客组