BILL36
隐世仙人♂

[2024] [日本] [剧情] [WEB-1080P] 喧哗独学[第06集][中文字幕].Kenka.Dokugaku.S01.2024.1080p.Baha.WEB-DL.x264.AAC-ZeroTV 0.46G

-->

完整标题:喧哗独学[第06集][中文字幕].Kenka.Dokugaku.S01.2024.1080p.Baha.WEB-DL.x264.AAC-ZeroTV 0.46GB



◎标  题 喧哗独学
◎译  名 格斗实况 / 直播风暴 / Viral Hit
◎片  名 싸움독학
◎年  代 2024
◎产  地 日本
◎类  别 剧情 / 动作 / 动画
◎语  言 日语
◎IMDb链接 https://www.imdb.com/title//
◎豆瓣链接 https://movie.douban.com/subject/36744123/
◎导  演 菱田正和 Masakazu Hishida
◎编  剧 大野敏哉 Ono Toshiya
◎演  员 丹羽哲士 Niwa Satoshi
      冈本信彦 Nobuhiko Okamoto
      菲鲁兹·蓝 Fairouz Ai
      石川由依 Yui Ishikawa
      武内骏辅 Shunsuke Takeuchi
      石川界人 Kaito Ishikawa
      青山吉能 Aoyama Yoshino
      中村悠一 Yuuichi Nakamura
      杉田智和 Tomokazu Sugita

◎简  介
    这是一个全民直播的时代,流量即金钱,弱鸡刘明浩误打误撞通过“打架”视频走红网络,开始了直播之路。为了赚钱还清欠款,需要足够“抗揍”,为此,他点开了一个神秘的账号,这个账号专门上传格斗技巧的教学视频。今天也励志成为不挨打又能赚钱的主播~

部分资源为软字幕,移动端推荐播放器:MxPlayer,nPlayer,infuse ,其他播放器请自行尝试。

部分资源为软字幕,电脑端推荐播放器:PotPlayer,完美解码,KMPLAYER,其他播放器请自行尝试。

下载端推荐纯BT下载软件:qBittorrent,Bitcomet,uTorrent ,其他下载软件请自行尝试。不支持吸血迅雷。

##### MediaInfo ######
General
Complete name : Kenka.Dokugaku.S01E06.2024.1080p.Baha.WEB-DL.x264.AAC-ZeroTV.mp4
Duration : 22 min 54 s
Overall bit rate : 2 890 kb/s

Video
ID : 1
Format : AVC
Format/Info : Advanced Video Codec
Format profile : High@L5
Format settings : CABAC / 4 Ref Frames
Format settings, CABAC : Yes
Format settings, Reference frames : 4 frames
Codec ID : avc1
Codec ID/Info : Advanced Video Coding
Duration : 22 min 54 s
Source duration : 22 min 54 s
Bit rate : 2 568 kb/s
Width : 1 920 pixels
Height : 1 080 pixels
Display aspect ratio : 16:9
Frame rate mode : Variable
Frame rate : 23.976 (24000/1001) FPS
Minimum frame rate : 23.974 FPS
Maximum frame rate : 23.981 FPS
Color space : YUV
Chroma subsampling : 4:2:0
Bit depth : 8 bits
Scan type : Progressive
Bits/(Pixel*Frame) : 0.052
Stream size : 421 MiB (89%)
Source stream size : 421 MiB (89%)
Writing library : x264 core 161 r3018 db0d417
Encoding settings : cabac=1 / ref=4 / deblock=1:-1:-1 / analyse=0x3:0x113 / me=umh / subme=9 / psy=1 / psy_rd=1.00:0.00 / mixed_ref=1 / me_range=16 / chroma_me=1 / trellis=2 / 8x8dct=1 / cqm=0 / deadzone=21,11 / fast_pskip=1 / chroma_qp_offset=-2 / threads=24 / lookahead_threads=2 / sliced_threads=0 / nr=0 / decimate=1 / interlaced=0 / bluray_compat=0 / constrained_intra=0 / bframes=8 / b_pyramid=2 / b_adapt=1 / b_bias=0 / direct=3 / weightb=1 / open_gop=0 / weightp=2 / keyint=250 / keyint_min=23 / scenecut=40 / intra_refresh=0 / rc_lookahead=50 / rc=crf / mbtree=1 / crf=21.0 / qcomp=0.60 / qpmin=0 / qpmax=69 / qpstep=4 / vbv_maxrate=12000 / vbv_bufsize=80000 / crf_max=0.0 / nal_hrd=none / filler=0 / ip_ratio=1.40 / aq=3:1.00
Codec configuration box : avcC

Audio
ID : 2
Format : AAC LC
Format/Info : Advanced Audio Codec Low Complexity
Codec ID : mp4a-40-2
Duration : 22 min 54 s
Bit rate mode : Constant
Bit rate : 317 kb/s
Channel(s) : 2 channels
Channel layout : L R
Sampling rate : 48.0 kHz
Frame rate : 46.875 FPS (1024 SPF)
Compression mode : Lossy
Stream size : 51.9 MiB (11%)
Language : Japanese
Default : Yes
Alternate group : 1


点击图片可查看大图

软字幕无法在截图上展现,HDR版本/杜比视界版本截图会出现颜色异常,请使用支持的设备播放!



1 个附件 售价 大小 下载 时间

Kenka.Dokugaku.S01.2024.1080p.Baha.WEB-DL.x264.AAC-ZeroTV[1LOU.ME].torrent 0 金币 3.65K 70 次 4天前

#1楼
发帖时间:2024-05-16 08:47:18   |   回复数:0
游客组