BILL36
隐世仙人♂

[2023] [大陆] [动画] [WEB-1080P] 大主宰年番[第48集][国语配音/中文字幕].Da.Zhuzai.S01.2023.1080p.WEB-DL.H264.AAC-ZeroTV 0.34GB

-->

完整标题:大主宰年番[第48集][国语配音/中文字幕].Da.Zhuzai.S01.2023.1080p.WEB-DL.H264.AAC-ZeroTV 0.34GB



◎标  题 大主宰年番
◎译  名 大主宰3D / The Great Ruler / The Grand Lord
◎年  代 2023
◎产  地 中国大陆
◎类  别 动画
◎语  言 汉语普通话
◎IMDb链接 https://www.imdb.com/title//
◎豆瓣链接 https://movie.douban.com/subject/35517453/
◎导  演 马建平 Jianping Ma
◎演  员 孙郎朗 Langlang Sun
      李诗萌 Shimeng Li
      江月 Yue Jiang
      贺文潇 Wenxiao He
      歪歪 Fuzheng Zhang
      柳真颜 Zhenyan Liu

◎简  介
    大千世界,北灵境出,踏灵路,伐罗天,剑斩诛邪永定乾坤,万道争锋吾为主率!   天蚕土豆内容监制,爱奇艺全网独播。

部分资源为软字幕,移动端推荐播放器:MxPlayer,nPlayer,infuse ,其他播放器请自行尝试。

部分资源为软字幕,电脑端推荐播放器:PotPlayer,完美解码,KMPLAYER,其他播放器请自行尝试。

下载端推荐纯BT下载软件:qBittorrent,Bitcomet,uTorrent ,其他下载软件请自行尝试。不支持吸血迅雷。

##### MediaInfo ######
General
Complete name : 大主宰年番.Da.Zhuzai.S01E48.2023.1080p.WEB-DL.H264.AAC-ZeroTV.mp4
Duration : 20 min 28 s
Overall bit rate mode : Variable
Overall bit rate : 2 358 kb/s

Video
ID : 1
Format : AVC
Format/Info : Advanced Video Codec
Format profile : High@L4
Format settings : CABAC / 3 Ref Frames
Format settings, CABAC : Yes
Format settings, Reference frames : 3 frames
Codec ID : avc1
Codec ID/Info : Advanced Video Coding
Duration : 20 min 27 s
Bit rate : 2 162 kb/s
Width : 1 920 pixels
Height : 1 080 pixels
Display aspect ratio : 16:9
Frame rate mode : Constant
Frame rate : 25.000 FPS
Color space : YUV
Chroma subsampling : 4:2:0
Bit depth : 8 bits
Scan type : Progressive
Bits/(Pixel*Frame) : 0.042
Stream size : 317 MiB (92%)
Color range : Limited
Color primaries : BT.709
Transfer characteristics : BT.709
Matrix coefficients : BT.709
Codec configuration box : avcC

Audio
ID : 2
Format : AAC LC
Format/Info : Advanced Audio Codec Low Complexity
Codec ID : mp4a-40-2
Duration : 20 min 28 s
Bit rate mode : Variable
Bit rate : 192 kb/s
Maximum bit rate : 196 kb/s
Channel(s) : 2 channels
Channel layout : L R
Sampling rate : 44.1 kHz
Frame rate : 43.066 FPS (1024 SPF)
Compression mode : Lossy
Stream size : 27.8 MiB (8%)
Default : Yes
Alternate group : 1


点击图片可查看大图

软字幕无法在截图上展现,HDR版本/杜比视界版本截图会出现颜色异常,请使用支持的设备播放!



1 个附件 售价 大小 下载 时间

Da.Zhuzai.S01.2023.1080p.WEB-DL.H264.AAC-ZeroTV[1LOU.ME].torrent 0 金币 3.35K 343 次 4天前

#1楼
发帖时间:2024-05-16 08:57:10   |   回复数:1
JYLin26
一派掌门
Thanks
4天前 #2楼
游客组