BILL36
隐世仙人♂

[2024] [日本] [动画] [WEB-1080P] 老夫老妻重返青春[第08集][中文字幕].Jiisan.Baasan.Wakagaeru.S01.2024.1080p.WEB-DL.H264.AAC-Zero

-->

完整标题:老夫老妻重返青春[第08集][中文字幕].Jiisan.Baasan.Wakagaeru.S01.2024.1080p.WEB-DL.H264.AAC-ZeroTV 0.35GB



◎标  题 老夫老妻重返青春
◎译  名 爷爷奶奶返老还童
◎片  名 じいさんばあさん若返る
◎年  代 2024
◎产  地 日本
◎类  别 动画 / 奇幻
◎语  言 日语
◎IMDb链接 https://www.imdb.com/title//
◎豆瓣链接 https://movie.douban.com/subject/36502081/
◎导  演 西田正义 Nishida Masayoshi
◎编  剧 菅原雪绘 Yukie Sugawara
◎演  员 三木真一郎 Shinichirô Miki
      能登麻美子 Mamiko Noto
      三上枝织 Shiori Mikami
      东山奈央 Nao Toyama
      寺岛惇太 Terashima Junta
      兴津和幸 Kazuyuki Okitsu
      樱井智 Tomo Sakurai

◎简  介
    打算于农村度过余生的高龄夫妇「正藏」与「依音」   懊悔著过去未能趁年轻时完成许多事,   两人觉得拥有彼此的陪伴就已是很幸福的事了,然而…   隔天起床时,两人竟发现突然返老还童!?   正藏向依音提出蜜月的建议,两人决定重返新婚时代的夫妇生活。

部分资源为软字幕,移动端推荐播放器:MxPlayer,nPlayer,infuse ,其他播放器请自行尝试。

部分资源为软字幕,电脑端推荐播放器:PotPlayer,完美解码,KMPLAYER,其他播放器请自行尝试。

下载端推荐纯BT下载软件:qBittorrent,Bitcomet,uTorrent ,其他下载软件请自行尝试。不支持吸血迅雷。

##### MediaInfo ######
General
Complete name : Jiisan.Baasan.Wakagaeru.S01E08.2024.1080p.WEB-DL.H264.AAC-ZeroTV.mp4
Duration : 23 min 39 s
Overall bit rate : 2 104 kb/s

Video
ID : 1
Format : AVC
Format/Info : Advanced Video Codec
Format profile : High@L5
Format settings : CABAC / 8 Ref Frames
Format settings, CABAC : Yes
Format settings, Reference frames : 8 frames
Codec ID : avc1
Codec ID/Info : Advanced Video Coding
Duration : 23 min 39 s
Bit rate : 1 912 kb/s
Width : 1 920 pixels
Height : 1 080 pixels
Display aspect ratio : 16:9
Frame rate mode : Variable
Frame rate : 23.976 (24000/1001) FPS
Minimum frame rate : 23.810 FPS
Maximum frame rate : 24.390 FPS
Color space : YUV
Chroma subsampling : 4:2:0
Bit depth : 8 bits
Scan type : Progressive
Bits/(Pixel*Frame) : 0.038
Stream size : 324 MiB (91%)
Color range : Limited
Color primaries : BT.709
Transfer characteristics : BT.709
Matrix coefficients : BT.709
mdhd_Duration : 1419960
Codec configuration box : avcC

Audio
ID : 2
Format : AAC LC
Format/Info : Advanced Audio Codec Low Complexity
Codec ID : mp4a-40-2
Duration : 23 min 39 s
Bit rate mode : Constant
Bit rate : 185 kb/s
Channel(s) : 2 channels
Channel layout : L R
Sampling rate : 48.0 kHz
Frame rate : 46.875 FPS (1024 SPF)
Compression mode : Lossy
Stream size : 31.3 MiB (9%)
Default : Yes
Alternate group : 1


点击图片可查看大图

软字幕无法在截图上展现,HDR版本/杜比视界版本截图会出现颜色异常,请使用支持的设备播放!



1 个附件 售价 大小 下载 时间

Jiisan.Baasan.Wakagaeru.S01.2024.1080p.WEB-DL.H264.AAC-ZeroTV[1LOU.ME].torrent 0 金币 3.36K 119 次 18天前

#1楼
发帖时间:2024-05-26 23:53:52   |   回复数:0
游客组