BILL36
隐世仙人♂

[2024] [日本] [剧情] [WEB-1080P] 转生贵族靠着鉴定技能一飞冲天[第08集][中文字幕].2024.1080p.Baha.WEB-DL.x264.AAC-ZeroTV 0.36GB

-->

完整标题:转生贵族靠着鉴定技能一飞冲天[第08集][中文字幕].2024.1080p.Baha.WEB-DL.x264.AAC-ZeroTV 0.36GB



◎标  题 转生贵族靠着鉴定技能一飞冲天
◎译  名 转世贵族 / 以鉴定技能发迹~因为继承了弱小的领地 / 所以如果增加了优秀的人才 / 就会成为最强的领地~ / 转生贵族凭鉴定技能扭转人生
◎片  名 転生貴族、鑑定スキルで成り上がる
◎年  代 2024
◎产  地 日本
◎类  别 剧情 / 动画 / 奇幻
◎语  言 日语
◎IMDb链接 https://www.imdb.com/title//
◎豆瓣链接 https://movie.douban.com/subject/36399513/
◎导  演 加户誉夫 Takao Kato
◎编  剧 中西泰博 Yasuhiro Nakanishi
◎演  员 藤原夏海 Natsumi Fujiwara
      坂泰斗 Ban Taito
      佳穂成美 Kaho Narumi
      冈咲美保 Miho Okasaki
      花泽香菜 Kana Hanazawa
      东地宏树 Hiroki Touchi
      生天目仁美 Hitomi Nabatame
      户松遥 Haruka Tomatsu

◎简  介
    过着平凡人生的平凡上班族,某天准备出门上班时心脏病发,醒来时已经成为异世界某个弱小贵族家的嫡子「亚尔斯」。到了这个世界,亚尔斯还是一样平凡,只是多了能将别人的能力化为数值的「鉴定」能力。得知自己的国家转眼就要爆发战乱后,亚尔斯为了生存并且保护领地与领民,决定用「鉴定」能力四处网罗优秀人才,从无到有打造超强领地!

部分资源为软字幕,移动端推荐播放器:MxPlayer,nPlayer,infuse ,其他播放器请自行尝试。

部分资源为软字幕,电脑端推荐播放器:PotPlayer,完美解码,KMPLAYER,其他播放器请自行尝试。

下载端推荐纯BT下载软件:qBittorrent,Bitcomet,uTorrent ,其他下载软件请自行尝试。不支持吸血迅雷。

##### MediaInfo ######
General
Complete name : Tensei.Kizoku.Kantei.Skill.de.Nariagaru.S01E08.2024.1080p.Baha.WEB-DL.x264.AAC-ZeroTV.mp4
Duration : 23 min 40 s
Overall bit rate : 2 140 kb/s

Video
ID : 1
Format : AVC
Format/Info : Advanced Video Codec
Format profile : High@L5
Format settings : CABAC / 4 Ref Frames
Format settings, CABAC : Yes
Format settings, Reference frames : 4 frames
Codec ID : avc1
Codec ID/Info : Advanced Video Coding
Duration : 23 min 40 s
Source duration : 23 min 40 s
Bit rate : 1 820 kb/s
Width : 1 920 pixels
Height : 1 080 pixels
Display aspect ratio : 16:9
Frame rate mode : Variable
Frame rate : 23.976 (24000/1001) FPS
Minimum frame rate : 23.974 FPS
Maximum frame rate : 23.981 FPS
Color space : YUV
Chroma subsampling : 4:2:0
Bit depth : 8 bits
Scan type : Progressive
Bits/(Pixel*Frame) : 0.037
Stream size : 308 MiB (85%)
Source stream size : 308 MiB (85%)
Writing library : x264 core 161 r3018 db0d417
Encoding settings : cabac=1 / ref=4 / deblock=1:-1:-1 / analyse=0x3:0x113 / me=umh / subme=9 / psy=1 / psy_rd=1.00:0.00 / mixed_ref=1 / me_range=16 / chroma_me=1 / trellis=2 / 8x8dct=1 / cqm=0 / deadzone=21,11 / fast_pskip=1 / chroma_qp_offset=-2 / threads=24 / lookahead_threads=2 / sliced_threads=0 / nr=0 / decimate=1 / interlaced=0 / bluray_compat=0 / constrained_intra=0 / bframes=8 / b_pyramid=2 / b_adapt=1 / b_bias=0 / direct=3 / weightb=1 / open_gop=0 / weightp=2 / keyint=250 / keyint_min=23 / scenecut=40 / intra_refresh=0 / rc_lookahead=50 / rc=crf / mbtree=1 / crf=21.0 / qcomp=0.60 / qpmin=0 / qpmax=69 / qpstep=4 / vbv_maxrate=12000 / vbv_bufsize=80000 / crf_max=0.0 / nal_hrd=none / filler=0 / ip_ratio=1.40 / aq=3:1.00
Codec configuration box : avcC

Audio
ID : 2
Format : AAC LC
Format/Info : Advanced Audio Codec Low Complexity
Codec ID : mp4a-40-2
Duration : 23 min 40 s
Bit rate mode : Constant
Bit rate : 315 kb/s
Channel(s) : 2 channels
Channel layout : L R
Sampling rate : 48.0 kHz
Frame rate : 46.875 FPS (1024 SPF)
Compression mode : Lossy
Stream size : 53.3 MiB (15%)
Language : Japanese
Default : Yes
Alternate group : 1


点击图片可查看大图

软字幕无法在截图上展现,HDR版本/杜比视界版本截图会出现颜色异常,请使用支持的设备播放!



1 个附件 售价 大小 下载 时间

2024.1080p.Baha.WEB-DL.x264.AAC-ZeroTV[1LOU.ME].torrent 0 金币 3.40K 112 次 18天前

#1楼
发帖时间:2024-05-26 23:55:49   |   回复数:0
游客组