BILL36
隐世仙人♂

[2024] [日本] [动画] [WEB-1080P] 碧蓝档案 The Animation[第08集][中文字幕].Blue.Archive.The.Animation.S01.2024.1080p.WEB-DL.

-->

完整标题:碧蓝档案 The Animation[第08集][中文字幕].Blue.Archive.The.Animation.S01.2024.1080p.WEB-DL.H264.AAC-ZeroTV 1.16GB



◎标  题 碧蓝档案 The Animation
◎译  名 碧蓝档案 / Blue Archive The Animation
◎片  名 ブルーアーカイブ The Animation
◎年  代 2024
◎产  地 日本
◎类  别 动画
◎语  言 日语
◎IMDb链接 https://www.imdb.com/title//
◎豆瓣链接 https://movie.douban.com/subject/36221195/
◎导  演 山岸大悟 Yamakishi Daigo
◎编  剧 大野木宽 Hiroshi Ônogi
      山岸大悟 Yamakishi Daigo
◎演  员 小仓唯 Yui Ogura
      花守由美里 Yumiri Hanamori
      大桥彩香 Ayaka Ohashi
      三浦千幸 Miura Chiyuki
      原田彩枫 Sayaka Harada
      近藤玲奈 Reina Kondou
      藤井雪代 Yukiyo Fujii
      石飞惠里花 Ishitobi Erika
      大久保瑠美 Rumi Okubo
      小原好美 Konomi Kohara

◎简  介
    ここが、私たちの居場所だから   数千を超える学校で形成された巨大な学園都市「キヴォトス」。   ここでは銃を手にした生徒たちの諍いが、日常的な風景になっている。   その中で、砂に包まれた「アビドス高等学校」は廃校の危機に瀕していた。   状況を脱すべく奮闘する「対策委員会」の5人の生徒が、   「先生」と呼ばれる“大人”と出会い、物語は動き始める。

部分资源为软字幕,移动端推荐播放器:MxPlayer,nPlayer,infuse ,其他播放器请自行尝试。

部分资源为软字幕,电脑端推荐播放器:PotPlayer,完美解码,KMPLAYER,其他播放器请自行尝试。

下载端推荐纯BT下载软件:qBittorrent,Bitcomet,uTorrent ,其他下载软件请自行尝试。不支持吸血迅雷。

##### MediaInfo ######
General
Unique ID : 251257952902423934517919660736501288366 (0xBD068582BAB6CED424D2CF62F8BC8DAE)
Complete name : Blue.Archive.The.Animation.S01E08.2024.1080p.WEB-DL.H264.AAC-ZeroTV.mkv
Duration : 23 min 40 s
Overall bit rate : 6 990 kb/s

Video
ID : 1
Format : AVC
Format/Info : Advanced Video Codec
Format profile : [email protected]
Format settings : CABAC / 1 Ref Frames
Format settings, CABAC : Yes
Format settings, Reference frames : 1 frame
Format settings, GOP : M=1, N=60
Codec ID : V_MPEG4/ISO/AVC
Duration : 23 min 40 s
Bit rate mode : Constant
Bit rate : 6 862 kb/s
Nominal bit rate : 8 000 kb/s
Width : 1 920 pixels
Height : 1 080 pixels
Display aspect ratio : 16:9
Frame rate mode : Constant
Frame rate : 29.970 (30000/1001) FPS
Color space : YUV
Chroma subsampling : 4:2:0
Bit depth : 8 bits
Scan type : Progressive
Bits/(Pixel*Frame) : 0.110
Stream size : 1.13 GiB (98%)
Language : English
Default : Yes
Forced : No

Audio
ID : 2
Format : AAC LC
Format/Info : Advanced Audio Codec Low Complexity
Codec ID : A_AAC-2
Duration : 23 min 38 s
Bit rate : 125 kb/s
Channel(s) : 2 channels
Channel layout : L R
Sampling rate : 48.0 kHz
Frame rate : 46.875 FPS (1024 SPF)
Compression mode : Lossy
Stream size : 21.2 MiB (2%)
Title : 日语
Language : Japanese
Default : Yes
Forced : No

Text #1
ID : 3
Format : UTF-8
Codec ID : S_TEXT/UTF8
Codec ID/Info : UTF-8 Plain Text
Duration : 23 min 35 s
Bit rate : 55 b/s
Frame rate : 0.261 FPS
Count of elements : 370
Stream size : 9.61 KiB (0%)
Title : 简体中文
Language : Chinese
Default : No
Forced : No

Text #2
ID : 4
Format : UTF-8
Codec ID : S_TEXT/UTF8
Codec ID/Info : UTF-8 Plain Text
Duration : 23 min 35 s
Bit rate : 55 b/s
Frame rate : 0.261 FPS
Count of elements : 370
Stream size : 9.61 KiB (0%)
Title : 繁体中文
Language : Chinese
Default : No
Forced : No


点击图片可查看大图

软字幕无法在截图上展现,HDR版本/杜比视界版本截图会出现颜色异常,请使用支持的设备播放!



1 个附件 售价 大小 下载 时间

Blue.Archive.The.Animation.S01.2024.1080p.WEB-DL.H264.AAC-ZeroTV[1LOU.ME].torrent 0 金币 5.40K 147 次 18天前

#1楼
发帖时间:2024-05-27 00:16:16   |   回复数:0
游客组