BILL36
隐世仙人♂

[2024] [大陆] [歌舞] [WEB-1080P] 百分百出品[第20240523期][国语配音/中文字幕].Show.It.All.S01.2024.1080p.WEB-DL.H264.MPEG-ColorWE

-->

完整标题:百分百出品[第20240523期][国语配音/中文字幕].Show.It.All.S01.2024.1080p.WEB-DL.H264.MPEG-ColorWEB 4.99GB



◎标  题 百分百出品
◎年  代 2024
◎产  地 中国大陆
◎类  别 歌舞 / 真人秀
◎语  言 汉语普通话
◎IMDb链接 https://www.imdb.com/title/tt31961107/
◎豆瓣链接 https://movie.douban.com/subject/36742801/
◎演  员 张艺兴 Yixing Zhang
      周洛汐 Luoxi Zhou
      李芊语 Qianyu Li
      刘婷秀 Tingxiu Liu
      彭湘蕊 Xiangrui Peng
      李雨林 Yulin Li
      胡静怡 Jingyi Hu
      孟佳 Jia Meng
      刘嘉裕 Danko

◎简  介
    这是一档青年国际舞台文化交流真人秀。节目采用全新原创的国际舞台交流赛模式,邀请国际女子新人团体来到中国,与由张艺兴带队的新人进行舞台文化交流。在为期100天跨文化和语言的交流之旅中,中国的Z世代对话国际Z世代,在一起共同训练、生活、交流、寻求自我能力的突破。

部分资源为软字幕,移动端推荐播放器:MxPlayer,nPlayer,infuse ,其他播放器请自行尝试。

部分资源为软字幕,电脑端推荐播放器:PotPlayer,完美解码,KMPLAYER,其他播放器请自行尝试。

下载端推荐纯BT下载软件:qBittorrent,Bitcomet,uTorrent ,其他下载软件请自行尝试。不支持吸血迅雷。

##### MediaInfo ######
General
Complete name : 百分百出品.Show.It.All.S01.20240523.1080p.WEB-DL.H264.MPEG-ColorWEB.mp4
Duration : 1 h 39 min
Overall bit rate mode : Constant
Overall bit rate : 7 200 kb/s

Video
ID : 1
Format : AVC
Format/Info : Advanced Video Codec
Format profile : High@L4
Format settings : CABAC / 1 Ref Frames
Format settings, CABAC : Yes
Format settings, Reference frames : 1 frame
Format settings, GOP : M=1, N=25
Codec ID : avc1
Codec ID/Info : Advanced Video Coding
Duration : 1 h 39 min
Bit rate mode : Constant
Bit rate : 7 002 kb/s
Width : 1 920 pixels
Height : 1 080 pixels
Display aspect ratio : 16:9
Frame rate mode : Constant
Frame rate : 25.000 FPS
Standard : Component
Color space : YUV
Chroma subsampling : 4:2:0
Bit depth : 8 bits
Scan type : Progressive
Bits/(Pixel*Frame) : 0.135
Stream size : 4.85 GiB (97%)
Writing library : 2.3.58544.674002
Color range : Limited
Codec configuration box : avcC

Audio
ID : 2
Format : MPEG Audio
Format version : Version 1
Format profile : Layer 2
Codec ID : mp4a-6B
Duration : 1 h 39 min
Bit rate mode : Constant
Bit rate : 192 kb/s
Channel(s) : 2 channels
Sampling rate : 48.0 kHz
Compression mode : Lossy
Stream size : 136 MiB (3%)
Language : Chinese
Default : Yes
Alternate group : 1


点击图片可查看大图

软字幕无法在截图上展现,HDR版本/杜比视界版本截图会出现颜色异常,请使用支持的设备播放!



1 个附件 售价 大小 下载 时间

Show.It.All.S01.2024.1080p.WEB-DL.H264.MPEG-ColorWEB[1LOU.ME].torrent 0 金币 14.98K 98 次 18天前

#1楼
发帖时间:2024-05-27 07:42:26   |   回复数:0
游客组