BILL36
隐世仙人♂

[2023] [大陆] [真人秀] [WEB-4K] 女子推理社[全12集][国语配音/中文字幕].Sherlock.S01.2023.2160p.WEB-DL.H265.AAC-ZeroTV 225.51GB

-->

完整标题:女子推理社[全12集][国语配音/中文字幕].Sherlock.S01.2023.2160p.WEB-DL.H265.AAC-ZeroTV 225.51GB



◎标  题 女子推理社
◎译  名 SHERLOCK
◎年  代 2023
◎产  地 中国大陆
◎类  别 真人秀
◎语  言 汉语普通话
◎IMDb链接 https://www.imdb.com/title//
◎豆瓣评分 8.4/10 (24088人评价)
◎豆瓣链接 https://movie.douban.com/subject/35907888/
◎演  员 戚薇 Stephy Qi
      张雨绮 Yuqi Zhang
      李一桐 Yitong Li
      李雪琴 Xueqin Li
      田曦薇 Xiwei Tian
      张艺凡 Yifan Zhang
      房静 Jing Fang

◎简  介
    国内首档全女性连续剧式推理真人秀。节目邀请6位高智商女性嘉宾,沉浸式融入1:1打造的职场环境中,通过推理+解谜的形式,侦破六个单元案件+一个主线案件,单期解谜与长线剧情双维推进,最终解锁案件背后的真相。

部分资源为软字幕,移动端推荐播放器:MxPlayer,nPlayer,infuse ,其他播放器请自行尝试。

部分资源为软字幕,电脑端推荐播放器:PotPlayer,完美解码,KMPLAYER,其他播放器请自行尝试。

下载端推荐纯BT下载软件:qBittorrent,Bitcomet,uTorrent ,其他下载软件请自行尝试。不支持吸血迅雷。

##### MediaInfo ######
General
Complete name : Sherlock.S01E01.2023.Part1.2160p.WEB-DL.H265.AAC-ZeroTV.mp4
Duration : 1 h 8 min
Overall bit rate mode : Variable
Overall bit rate : 16.4 Mb/s

Video
ID : 1
Format : HEVC
Format/Info : High Efficiency Video Coding
Format profile : Main@L5@High
Codec ID : hev1
Codec ID/Info : High Efficiency Video Coding
Duration : 1 h 8 min
Bit rate : 16.2 Mb/s
Width : 3 840 pixels
Height : 2 160 pixels
Display aspect ratio : 16:9
Frame rate mode : Constant
Frame rate : 25.000 FPS
Color space : YUV
Chroma subsampling : 4:2:0
Bit depth : 8 bits
Bits/(Pixel*Frame) : 0.078
Stream size : 7.70 GiB (99%)
Writing library : 2.3.58544.674002
Color range : Limited
Color primaries : BT.709
Transfer characteristics : BT.709
Matrix coefficients : BT.709
Codec configuration box : hvcC

Audio
ID : 2
Format : AAC LC
Format/Info : Advanced Audio Codec Low Complexity
Codec ID : mp4a-40-2
Duration : 1 h 8 min
Bit rate mode : Variable
Bit rate : 192 kb/s
Channel(s) : 2 channels
Channel layout : L R
Sampling rate : 48.0 kHz
Frame rate : 46.875 FPS (1024 SPF)
Compression mode : Lossy
Stream size : 92.3 MiB (1%)
Default : Yes
Alternate group : 1


点击图片可查看大图

软字幕无法在截图上展现,HDR版本/杜比视界版本截图会出现颜色异常,请使用支持的设备播放!



1 个附件 售价 大小 下载 时间

Sherlock.S01.2023.2160p.WEB-DL.H265.AAC-ZeroTV[1LOU.ME].torrent 0 金币 568.43K 266 次 18天前

#1楼
发帖时间:2024-05-27 09:14:11   |   回复数:0
游客组