BILL36
隐世仙人♂

[2023] [大陆] [剧情] [WEB-4K] 仙逆[第38集][国语配音/中文字幕].Renegade.Immortal.S01.2023.2160p.WEB-DL.H265.AAC-ColorWEB 1.

-->

完整标题:仙逆[第38集][国语配音/中文字幕].Renegade.Immortal.S01.2023.2160p.WEB-DL.H265.AAC-ColorWEB 1.47GB



◎标  题 仙逆
◎译  名 Renegade Immortal
◎年  代 2023
◎产  地 中国大陆
◎类  别 剧情 / 动画 / 古装
◎语  言 汉语普通话
◎IMDb链接 https://www.imdb.com/title//
◎豆瓣链接 https://movie.douban.com/subject/35679839/
◎导  演 石头熊 TouXiong Shi
◎编  剧 马华 Hua Ma
◎演  员 史泽鲲 Zekun Shi
      常文涛 Wentao Chang
      林强 Qiang Lin
      周湘宁
      张惠霖 Huilin Zhang
      刘思岑 Sicen Liu
      王婧儿 Jinger Wang

◎简  介
    改编自耳根同名小说《仙逆》,讲述了乡村平凡少年王林以心中之感动,逆仙而修,求的不仅是长生,更多的是摆脱那背后的蝼蚁之身。他坚信道在人为,以平庸的资质踏入修真仙途,历经坎坷风雨,凭着其聪睿的心智,一步一步走向巅峰,凭一己之力,扬名修真界。

部分资源为软字幕,移动端推荐播放器:MxPlayer,nPlayer,infuse ,其他播放器请自行尝试。

部分资源为软字幕,电脑端推荐播放器:PotPlayer,完美解码,KMPLAYER,其他播放器请自行尝试。

下载端推荐纯BT下载软件:qBittorrent,Bitcomet,uTorrent ,其他下载软件请自行尝试。不支持吸血迅雷。

##### MediaInfo ######
General
Complete name : 仙逆.Renegade.Immortal.S01E38.2023.2160p.WEB-DL.H265.AAC-ColorWEB.mp4
Duration : 22 min 58 s
Overall bit rate mode : Variable
Overall bit rate : 9 137 kb/s

Video
ID : 1
Format : HEVC
Format/Info : High Efficiency Video Coding
Format profile : Main@L5@Main
Codec ID : hev1
Codec ID/Info : High Efficiency Video Coding
Duration : 22 min 58 s
Source duration : 22 min 58 s
Bit rate : 9 008 kb/s
Width : 3 840 pixels
Height : 1 632 pixels
Display aspect ratio : 2.35:1
Frame rate mode : Variable
Frame rate : 25.000 FPS
Minimum frame rate : 24.993 FPS
Maximum frame rate : 25.007 FPS
Color space : YUV
Chroma subsampling : 4:2:0
Bit depth : 8 bits
Bits/(Pixel*Frame) : 0.057
Stream size : 1.45 GiB (99%)
Source stream size : 1.45 GiB (99%)
Writing library : Tencent-V265-1.6.9.1-p1k184g16lh64f4ra1.
Color range : Limited
Color primaries : BT.709
Transfer characteristics : BT.709
Matrix coefficients : BT.709
Codec configuration box : hvcC

Audio
ID : 2
Format : AAC LC
Format/Info : Advanced Audio Codec Low Complexity
Codec ID : mp4a-40-2
Duration : 22 min 58 s
Bit rate mode : Variable
Bit rate : 122 kb/s
Maximum bit rate : 126 kb/s
Channel(s) : 2 channels
Channel layout : L R
Sampling rate : 48.0 kHz
Frame rate : 46.875 FPS (1024 SPF)
Compression mode : Lossy
Stream size : 20.1 MiB (1%)
Default : Yes
Alternate group : 1


点击图片可查看大图

软字幕无法在截图上展现,HDR版本/杜比视界版本截图会出现颜色异常,请使用支持的设备播放!



1 个附件 售价 大小 下载 时间

Renegade.Immortal.S01.2023.2160p.WEB-DL.H265.AAC-ColorWEB[1LOU.ME].torrent 0 金币 6.16K 469 次 18天前

#1楼
发帖时间:2024-05-27 09:16:17   |   回复数:0
游客组