BILL36
隐世仙人♂

[2024] [韩国] [剧情] [WEB-1080P] 虽然不是英雄[第08集][无字片源].The.Atypical.Family.S01.1080p.TVING.WEB-DL.AAC2.0.H.264-Black

-->

完整标题:虽然不是英雄[第08集][无字片源].The.Atypical.Family.S01.1080p.TVING.WEB-DL.AAC2.0.H.264-BlackTV 2.59GB



◎标  题 虽然不是英雄
◎译  名 The Atypical Family
◎片  名 히어로는 아닙니다만
◎年  代 2024
◎产  地 韩国
◎类  别 剧情
◎语  言 韩语
◎IMDb链接 https://www.imdb.com/title/tt32166552/
◎豆瓣链接 https://movie.douban.com/subject/36399691/
◎导  演 赵贤卓 Hyeon-tak Jo
◎编  剧 朱华美 Hwa Mi Joo
◎演  员 张基龙 Jang Ki-yong
      千玗嬉 Woo-hee Chun
      高斗心 Du-shim Ko
      金秀贤 Soo-hyun Kim
      吴万石 Man-seok Oh
      朴昭怡 So-i Park

◎简  介
    该剧讲述了因现代人的疾病而失去超能力的男人,却拯救了命运般相遇的女人的奇幻治愈罗曼史。   千玗嬉饰演在火灾事故现场被一位不知姓名的恩人救起,不放弃对生活和家人的希望,坚强生活的女主角都多海。张基龙饰演因现代人的疾病而失去超能力的男主角。

部分资源为软字幕,移动端推荐播放器:MxPlayer,nPlayer,infuse ,其他播放器请自行尝试。

部分资源为软字幕,电脑端推荐播放器:PotPlayer,完美解码,KMPLAYER,其他播放器请自行尝试。

下载端推荐纯BT下载软件:qBittorrent,Bitcomet,uTorrent ,其他下载软件请自行尝试。不支持吸血迅雷。

##### MediaInfo ######
General
Unique ID : 262535080956564232848909192686686766378 (0xC5826AD9D9C5834FF5FF8CCDC299052A)
Complete name : The.Atypical.Family.S01E08.1080p.TVING.WEB-DL.AAC2.0.H.264-BlackTV.mkv
Duration : 1 h 12 min
Overall bit rate mode : Variable
Overall bit rate : 5 080 kb/s

Video
ID : 1
Format : AVC
Format/Info : Advanced Video Codec
Format profile : High@L4
Format settings : CABAC / 2 Ref Frames
Format settings, CABAC : Yes
Format settings, Reference frames : 2 frames
Codec ID : V_MPEG4/ISO/AVC
Duration : 1 h 12 min
Bit rate mode : Variable
Bit rate : 4 949 kb/s
Maximum bit rate : 9 000 kb/s
Width : 1 920 pixels
Height : 1 080 pixels
Display aspect ratio : 16:9
Frame rate mode : Constant
Frame rate : 29.970 (30000/1001) FPS
Color space : YUV
Chroma subsampling : 4:2:0
Bit depth : 8 bits
Scan type : Progressive
Bits/(Pixel*Frame) : 0.080
Stream size : 2.52 GiB (97%)
Language : Korean
Default : Yes
Forced : No

Audio
ID : 2
Format : AAC LC
Format/Info : Advanced Audio Codec Low Complexity
Codec ID : A_AAC-2
Duration : 1 h 12 min
Bit rate : 128 kb/s
Channel(s) : 2 channels
Channel layout : L R
Sampling rate : 48.0 kHz
Frame rate : 46.875 FPS (1024 SPF)
Compression mode : Lossy
Stream size : 66.8 MiB (3%)
Default : Yes
Forced : No


点击图片可查看大图

软字幕无法在截图上展现,HDR版本/杜比视界版本截图会出现颜色异常,请使用支持的设备播放!



1 个附件 售价 大小 下载 时间

The.Atypical.Family.S01.1080p.TVING.WEB-DL.AAC2.0.H.264-BlackTV[1LOU.ME].torrent 0 金币 8.98K 196 次 18天前

#1楼
发帖时间:2024-05-27 10:09:46   |   回复数:0
游客组