BILL36
隐世仙人♂

[2024] [韩国] [剧情] [WEB-1080P] 毕业[第06集][无字片源].The.Midnight.Romance.in.Hagwon.S01.1080p.TVING.WEB-DL.AAC2.0.H.26

-->

完整标题:毕业[第06集][无字片源].The.Midnight.Romance.in.Hagwon.S01.1080p.TVING.WEB-DL.AAC2.0.H.264-BlackTV 1.75GB



◎标  题 毕业
◎译  名 Graduation / The Midnight Romance in Hagwon
◎片  名 졸업
◎年  代 2024
◎产  地 韩国
◎类  别 剧情 / 爱情
◎语  言 韩语
◎IMDb链接 https://www.imdb.com/title/tt29839098/
◎豆瓣链接 https://movie.douban.com/subject/36318333/
◎导  演 安畔锡 Pan-suk Ahn
◎演  员 郑丽媛 Ryeo-won Jeong
      魏嘏隽 Ha-joon Wi
      苏珠妍 Joo-yeon So
      申柱协 Joo-hyup Shin
      吴万锡 Man-seok Oh
      李圭成 Gyoo-seong Lee
      徐正妍 Seo Jung-yeon
      张素妍 So-yeon Jang
      尹福仁 Bokin Yoon
      李时勋 Si-hoon Lee

◎简  介
    讲述老练的学院教师徐惠珍(郑丽媛 饰)与时隔十年回来打乱她内心又胆大妄为的弟子李俊浩(魏嘏隽 饰)之间隐秘又甜蜜的现实罗曼史。

部分资源为软字幕,移动端推荐播放器:MxPlayer,nPlayer,infuse ,其他播放器请自行尝试。

部分资源为软字幕,电脑端推荐播放器:PotPlayer,完美解码,KMPLAYER,其他播放器请自行尝试。

下载端推荐纯BT下载软件:qBittorrent,Bitcomet,uTorrent ,其他下载软件请自行尝试。不支持吸血迅雷。

##### MediaInfo ######
General
Unique ID : 248224824359260633222546108642382971119 (0xBABE5CBA4728EA798E5CC9F8345A00EF)
Complete name : The.Midnight.Romance.in.Hagwon.S01E06.1080p.TVING.WEB-DL.AAC2.0.H.264-BlackTV.mkv
Duration : 1 h 7 min
Overall bit rate mode : Variable
Overall bit rate : 3 708 kb/s

Video
ID : 1
Format : AVC
Format/Info : Advanced Video Codec
Format profile : High@L4
Format settings : CABAC / 2 Ref Frames
Format settings, CABAC : Yes
Format settings, Reference frames : 2 frames
Codec ID : V_MPEG4/ISO/AVC
Duration : 1 h 7 min
Bit rate mode : Variable
Bit rate : 3 577 kb/s
Maximum bit rate : 7 000 kb/s
Width : 1 920 pixels
Height : 1 080 pixels
Display aspect ratio : 16:9
Frame rate mode : Constant
Frame rate : 29.970 (30000/1001) FPS
Color space : YUV
Chroma subsampling : 4:2:0
Bit depth : 8 bits
Scan type : Progressive
Bits/(Pixel*Frame) : 0.058
Stream size : 1.69 GiB (96%)
Language : Korean
Default : Yes
Forced : No

Audio
ID : 2
Format : AAC LC
Format/Info : Advanced Audio Codec Low Complexity
Codec ID : A_AAC-2
Duration : 1 h 7 min
Bit rate : 128 kb/s
Channel(s) : 2 channels
Channel layout : L R
Sampling rate : 48.0 kHz
Frame rate : 46.875 FPS (1024 SPF)
Compression mode : Lossy
Stream size : 61.9 MiB (3%)
Default : Yes
Forced : No


点击图片可查看大图

软字幕无法在截图上展现,HDR版本/杜比视界版本截图会出现颜色异常,请使用支持的设备播放!



1 个附件 售价 大小 下载 时间

The.Midnight.Romance.in.Hagwon.S01.1080p.TVING.WEB-DL.AAC2.0.H.264-BlackTV[1LOU.ME].torrent 0 金币 6.90K 161 次 18天前

#1楼
发帖时间:2024-05-27 10:10:16   |   回复数:0
游客组