流氓兔214
一代宗师

[2022] [大陆] [科幻] [全集] [BT下载][开端][全15集][国语中字][Web-MKV][10.2GB][2160P][无水印]

-->

海报





译  名 开端
片  名 Reset
年  代 2022
国  家 中国
类  别 剧情/科幻/惊悚
语  言 汉语普通话
字  幕 中文硬字幕
评  分 7.8/10 from 734,541 users
链  接 https://movie.douban.com/subject/35332289
文件大小 10.2 GB
单集片长 45 Min
集  数 15
导  演 孙墨龙 Molong Sun
     刘洪源 Hongyuan Liu
     老算 Passsee Mu
主  演 赵今麦 Jinmai Zhao
     白敬亭 Jingting Bai
     刘奕君 Yijun Liu
     黄觉 Jue Huang
     刘丹 Dan Liu
     刘涛 Tao Liu
     宋家腾 Jiateng Song
     曾柯琅 Kelang Zeng
     张喜前 Xiqian Zhang
     马兰 Lan Ma
     焦鹏 Peng Jiao
     李感 Gan Li
     范帅琦 Shuaiqi Fan

简介

  该剧改编自祈祷君的同名小说,讲述了游戏架构师肖鹤云(白敬亭 饰)和在校大学生李诗情(赵今麦 饰)在遭遇公交车爆炸后“死而复生”,于公交车出事的时间段内不断经历时间循环,从下车自救到打破隔阂并肩作战,努力阻止爆炸、寻找真相的故事。

Video
Format                         : HEVC
Format/Info                    : High Efficiency Video Coding
Format profile                 : Main @ L5 @ Main
Codec ID                       : V_MPEGH/ISO/HEVC
Duration                       : 44 min 51 s
Bit rate                       : 2 797 kb/s
Width                          : 3 840 pixels
Height                         : 1 628 pixels
Display aspect ratio           : 2.35:1
Frame rate mode                : Constant
Frame rate                     : 25.000 FPS
Color space                    : YUV
Chroma subsampling             : 4:2:0
Bit depth                      : 8 bits
Bits/(Pixel*Frame)             : 0.018
Stream size                    : 897 MiB (96%)

Audio
Format                         : AAC LC
Format/Info                    : Advanced Audio Codec Low Complexity
Codec ID                       : A_AAC-2
Duration                       : 44 min 51 s
Bit rate                       : 125 kb/s
Channel(s)                     : 2 channels
Channel layout                 : L R
Sampling rate                  : 48.0 kHz
Frame rate                     : 46.875 FPS (1024 SPF)
Compression mode               : Lossy
Stream size                    : 40.2 MiB (4%)


截图



1 个附件 售价 大小 下载 时间

梦幻天堂·龙网(www.LWgod.org).开端.中国2022热剧.全15集.torrent 0 金币 54.18K 1883 次 3天前

#1楼
发帖时间:2022-06-22 18:12:05   |   回复数:3
流氓兔214
一代宗师
标记
3天前 #2楼
流氓兔214
一代宗师
标记
3天前 #3楼
流氓兔214
一代宗师
标记
2天前 #4楼
游客组